. torrent777.xyz
Авторские права
web...@...Показать
Вход на сайт
Логин:
Пароль:
 
Навигация по сайту
Опрос на сайте

Да
Нет


Популярные статьи

Cкачать торрент бесплатно фильмы, игры, музыка, книги Мультфильмы торрент скачать Фейри Тейл / Сказка о Хвосте Феи / Fairy tail (2014) WEB-DL 720p | Ancord скачать через торрент

Фейри Тейл / Сказка о Хвосте Феи / Fairy tail (2014) WEB-DL 720p | Ancord скачать через торрент

Мультфильмы торрент скачать
Фейри Тейл / Сказка о Хвосте Феи / Fairy tail  (2014) WEB-DL 720p | Ancord скачать через торрент

Детально о кино
Русское название: Фейри Тейл ТВ-2 / Сказка о Хвосте Феи
Русское название в мировом прокате: Fairy Tail TV-2
Создали в: 2014
Снималось в: Япония
Категория жанра: приключения, фэнтези, сёнэн
Время просмотра: ТВ (13 эп.), 25 мин.

Перевод текста: Любительский (одноголосый)
Озвучка: Ancord
Перевод текста на русский: Advokat Bel-chan Blazing Wizard Jenia aka Zub sild Мария Гостюхина
Субтитры: отсутствуют

Главный режиссер: Исихира Синдзи
Снято по манге: Fairy Tail
Автор оригинала: Масима Хиро
Очередной релиз: c 05.04.2014
Киностудия:

Сюжет: Фейри Тейл – знаменитая на весь мир своими безбашенными выходками Гильдия волшебников по найму. Молодая волшебница Люси была уверена, что, став одним из её членов, попала в самую замечательную на свете Гильдию… до тех пор, пока не познакомилась со своими камрадами – взрывным огнедышащим и сметающим всё на своём пути Нацу, летающим говорящим котом Хэппи, эксгибиционистом Греем, занудой-берсерком Эльзой, гламурным и любвеобильным Локи… Вместе им предстоит одолеть немало врагов и пережить множество незабываемых приключений!

Качество фильма: WEB-DL
Тип релиза: Без хардсаба
Тип видео видео: mp4
Информация о видео кодек: H.264
Информация о звуке кодек: AAC
Информация о видео: x264, 1280x720 , ~1700 kbps, 23.976 fps
Информация о звуке: AAC, 48 kHz, 2 ch, ~192.00 kbps

Релиз подготовил:

MediaInfo

Общее
Полное имя :Fairy_Tail_TV-2_720p_AncordFairy_Tail_TV-2_001_Rus_720p_x264_Aac_Ancord.mp4
Формат : MPEG-4
Профиль формата : Base Media
Идентификатор кодека : isom
Размер файла : 336 Мбайт
Продолжительность : 24 м.
Общий поток : 1895 Кбит/сек
Дата кодирования : UTC 2014-04-05 10:48:48
Дата пометки : UTC 2014-04-05 10:48:48
Программа кодирования : Yamb 2.1.0.0 http://yamb.unite-video.com

Видео
Идентификатор : 1
Формат : AVC
Формат/Информация : Advanced Video Codec
Профиль формата : Baseline@L3.1
Параметр CABAC формата : Нет
Параметр ReFrames формата : 3 кадра
Параметр GOP формата : M=1, N=30
Идентификатор кодека : avc1
Идентификатор кодека/Информация : Advanced Video Coding
Продолжительность : 24 м.
Вид битрейта : Переменный
Битрейт : 1700 Кбит/сек
Максимальный битрейт : 8000 Кбит/сек
Ширина : 1280 пикселей
Высота : 720 пикселей
Соотношение сторон : 16:9
Режим частоты кадров : Постоянный
Частота кадров : 23,976 кадра/сек
Стандарт вещания : NTSC
Цветовое пространство : YUV
Субдискретизация насыщенности : 4:2:0
Битовая глубина : 8 бит
Тип развёртки : Прогрессивная
Бит/(Пиксели*Кадры) : 0.077
Размер потока : 302 Мбайт (90%)
Язык : English
Дата кодирования : UTC 2014-04-05 08:52:40
Дата пометки : UTC 2014-04-05 10:48:58

Аудио
Идентификатор : 2
Формат : AAC
Формат/Информация : Advanced Audio Codec
Профиль формата : LC
Идентификатор кодека : 40
Продолжительность : 24 м.
Вид битрейта : Переменный
Битрейт : 192 Кбит/сек
Максимальный битрейт : 196 Кбит/сек
Каналы : 2 канала
Расположение каналов : Front: L R
Частота : 48,0 КГц
Метод сжатия : С потерями
Размер потока : 34,1 Мбайт (10%)
Язык : English
Дата кодирования : UTC 2014-04-05 10:48:58
Дата пометки : UTC 2014-04-05 10:48:58
Список эпизодов

001(176). Драконий Владыка
002(177). Проект Затмение
Скриншоты для ознакомления

Залил: darknessX
Размер скачиваемого торрента: 672.32 MB (704976623 Bytes)

Фейри Тейл / Сказка о Хвосте Феи / Fairy tail (2014) WEB-DL 720p | Ancord скачать через торрент

Ключевые теги: скачать мультфильмы, скачать аниме
 
Уважаемый посетитель, Вы зашли на сайт как незарегистрированный пользователь. Мы рекомендуем Вам зарегистрироваться либо зайти на сайт под своим именем.

Другие новости по теме:

  • Фейри Тейл / Fairy Tail (2009-2012) HDTVRip 720p | Рersona99
  • Сказка о Хвосте Феи / Фейри Тейл / Fairy Tail TV OVA 1-4 OST Manga Bonus (2009-2012) HDTVRip-AVC 720р | Ancord
  • Фейри Тейл OVA / Fairy Tail (2011-2012) DVDRip | Persona99
  • Фейри Тейл (фильм пролог) / Fairy Tail Movie Prolouge (2012) DVDRip AVC | Persona99
  • Фейри Тейл: Жрица Жар-Птицы / Gekijouban Fairy Tail: Houou no Miko (2012) DTVRip-AVC | Persona99
  • Фейри Тейл OVA / Fairy Tail (2011-2012) DVDRip AVC | Persona99
  • Фейри Тейл OVA / Fairy Tail (2011-2013) DVDRip AVC | Persona99 скачать через торрент
  • Хвост Феи / Сказка о Хвосте Феи, Фейри Тейл / Fairy tail (2014) HDTVRip 1080p | Naruto-Hokage скачать через торрент


  • Информация
    Посетители, находящиеся в группе Гости, не могут оставлять комментарии в данной новости.
    Главная страница | Регистрация | Добавить новость | Новое на сайте Copyright © 2019. torrent777.xyz All Rights Reserved