. torrent777.xyz
Авторские права
web...@...Показать
Вход на сайт
Логин:
Пароль:
 
Навигация по сайту
Опрос на сайте

Да
Нет


Популярные статьи

» » Бонни и Клайд / Bonnie and Clyde (1967) BDRip-AVC | iPad | D скачать торрент бесплатно

Бонни и Клайд / Bonnie and Clyde (1967) BDRip-AVC | iPad | D скачать торрент бесплатно

Бонни и Клайд / Bonnie and Clyde (1967) BDRip-AVC | iPad | D
Бонни и Клайд/Bonnie and Clyde (1967) BDRip-AVC | iPad | D
A brilliantly made, groundbreaking film that chronicles the short lives of America;s most infamous criminals
Русское название:Бонни и Клайд
Русское название в мировом прокате:Bonnie and Clyde
Создали в:1967
Категория жанра:драма, криминал, биография
Главный режиссер:Артур Пенн
Актеры:Уоррен Битти, Фэй Данауэй, Майкл Дж. Поллард, Джин Хэкмен, Эстелл Парсонс, Денвер Пайл, Даб Тейлор, Эванс Эванс, Джин Уайлдер, Марта Эдкок
Сюжет фильма:
Молодые и отчаянные любовники Бонни и Клайд легко и изящно грабят банки в 30-е годы XX века. Но их романтизм и робингудство довольно быстро перерастают в лужи и реки крови, в хаос и грязь смерти, а судьба пророчит им неудачу…

Снималось в:США
Киностудия:Warner Brothers, Seven Arts, Tatira-Hiller Productions
Время просмотра:01:50:46
Перевод текста:Русский дублированный (Варус-Видео)
Файл
Кодек для видео:H.264
Качество фильма:BDRip-AVC 576p
Информация о видео:1024x576 (16:9) at 23.976 fps, AVC at 3500 kbps
Информация о звуке:
1: АAС 2.0 150 kbps - Русский дублированный (Варус-Видео)
2: АAС 2.0 90 kbps - Английский
Субтитры:Русский, Английский
MI

General
Complete name : I:modoutBonnie.and.Clyde.1967.576p.DP.m4v
Format : MPEG-4
Codec ID : M4V
File size : 2.94 GiB
Duration : 1h 50mn
Overall bit rate mode : Variable
Overall bit rate : 3 802 Kbps
Movie name : Бонни и Клайд
Performer : Arthur Penn
Genre : Drama
ContentType : Short Film
Deion : Молодые и отчаянные любовники Бонни и Клайд легко и изящно грабят банки в 30-е годы XX века. Но их романтизм и робингудство довольно быстро перерастают в лужи и реки крови, в хаос и грязь смерти, а судьба пророчит им неудачу…
Recorded date : UTC 1967-08-13 07:00:00
Encoded date : UTC 2014-09-08 19:15:03
Tagged date : UTC 2014-09-08 19:35:26
Copyright : © 1967 A Warner Bros. Entertainment Inc. All Rights Reserved
Cover : Yes
Comment : A brilliantly made, groundbreaking film that chronicles the short lives of America;s most infamous criminals
ContentRating : mpaa|R|400|
Title/Sort : Bonnie and Clyde
LongDeion : Молодые и отчаянные любовники Бонни и Клайд легко и изящно грабят банки в 30-е годы XX века. Но их романтизм и робингудство довольно быстро перерастают в лужи и реки крови, в хаос и грязь смерти, а судьба пророчит им неудачу…
AppleStoreCatalogID : 272727813
Vendor : Apple:vendor_id:1967-516
Video
ID : 1
Format : AVC
Format/Info : Advanced Video Codec
Format profile : High@L4.1
Format settings, CABAC : Yes
Format settings, ReFrames : 9 frames
Codec ID : avc1
Codec ID/Info : Advanced Video Coding
Duration : 1h 50mn
Bit rate : 3 549 Kbps
Maximum bit rate : 16.6 Mbps
Width : 1 024 pixels
Height : 576 pixels
Display aspect ratio : 16:9
Frame rate mode : Constant
Frame rate : 23.976 fps
Color space : YUV
Chroma subsampling : 4:2:0
Bit depth : 8 bits
Scan type : Progressive
Bits/(Pixel*Frame) : 0.251
Stream size : 2.75 GiB (93%)
Title : Bonnie and Clyde _1967_
Language : English
Encoded date : UTC 2014-09-08 19:15:03
Tagged date : UTC 2014-09-08 19:15:30
Audio #1
ID : 2
Format : AAC
Format/Info : Advanced Audio Codec
Format profile : LC
Codec ID : 40
Duration : 1h 50mn
Bit rate mode : Variable
Bit rate : 153 Kbps
Maximum bit rate : 161 Kbps
Channel(s) : 2 channels
Channel positions : Front: L R
Sampling rate : 48.0 KHz
Compression mode : Lossy
Stream size : 121 MiB (4%)
Title : DUB _Varus_Video_
Language : Russian
Encoded date : UTC 2014-09-08 19:10:33
Tagged date : UTC 2014-09-08 19:15:30
Audio #2
ID : 3
Format : AAC
Format/Info : Advanced Audio Codec
Format profile : LC
Codec ID : 40
Duration : 1h 50mn
Bit rate mode : Variable
Bit rate : 87.1 Kbps
Maximum bit rate : 95.6 Kbps
Channel(s) : 2 channels
Channel positions : Front: L R
Sampling rate : 48.0 KHz
Compression mode : Lossy
Stream size : 69.0 MiB (2%)
Title : Original
Language : English
Encoded date : UTC 2014-09-08 19:13:10
Tagged date : UTC 2014-09-08 19:15:30
Text #1
ID : 4
Format : Timed Text
Muxing mode : sbtl
Codec ID : tx3g
Duration : 1h 48mn
Bit rate mode : Variable
Bit rate : 59 bps
Stream size : 46.4 KiB (0%)
Language : Russian
Encoded date : UTC 2014-09-08 19:15:30
Tagged date : UTC 2014-09-08 19:15:30
Text #2
ID : 5
Format : Timed Text
Muxing mode : sbtl
Codec ID : tx3g
Duration : 1h 48mn
Bit rate mode : Variable
Bit rate : 59 bps
Stream size : 46.5 KiB (0%)
Language : English
Encoded date : UTC 2014-09-08 19:15:30
Tagged date : UTC 2014-09-08 19:15:30
Menu
ID : 6
Codec ID : text
Duration : 1h 50mn
Encoded date : UTC 2014-09-08 19:15:56
Tagged date : UTC 2014-09-08 19:15:56
Bit rate mode : VBR
iTunes tags

Sort Name: Bonnie and Clyde
XID: Apple:vendor_id:1967-516
Content ID: 272727813
Copyright: © 1967 A Warner Bros. Entertainment Inc. All Rights Reserved
ScreenWriters: Дэвид Ньюман, Роберт Бентон, Роберт Таун
Producers: Уоррен Битти
Director: Артур Пенн
Cast: Warren Beatty (Clyde Barrow), Faye Dunaway (Bonnie Parker), Michael J. Pollard (C.W. Moss), Gene Wilder (Eugene Grizzard), Gene Hackman (Buck Barrow), Estelle Parsons (Blanche), Denver Pyle (Frank Hamer), Dub Taylor (Ivan Moss), Evans Evans (Velma Davis), Mabel Cavitt (Bonnie;s mother)
Rating: R
Long Deion: Молодые и отчаянные любовники Бонни и Клайд легко и изящно грабят банки в 30-е годы XX века. Но их романтизм и робингудство довольно быстро перерастают в лужи и реки крови, в хаос и грязь смерти, а судьба пророчит им неудачу…
Deion: Молодые и отчаянные любовники Бонни и Клайд легко и изящно грабят банки в 30-е годы XX века. Но их романтизм и робингудство довольно быстро перерастают в лужи и реки крови, в хаос и грязь смерти, а судьба пророчит им неудачу…
Release Date: 1967-08-13T07:00:00Z
Genre: Drama
Artist: Arthur Penn
Name: Бонни и Клайд
Comments: A brilliantly made, groundbreaking film that chronicles the short lives of America;s most infamous criminals
x264

x264 info: frame I:1404 Avg QP:15.12 size:108941
x264 info: frame P:42467 Avg QP:19.72 size: 34372
x264 info: frame B:105746 Avg QP:22.03 size: 7978
x264 info: consecutive B-frames: 5.6% 5.3% 17.1% 34.4% 17.9% 17.4% 1.7% 0.3% 0.1%
x264 info: mb I I16..4: 7.9% 51.1% 41.0%
x264 info: mb P I16..4: 1.0% 12.0% 3.4% P16..4: 23.7% 29.2% 17.3% 6.9% 2.0% skip: 4.5%
x264 info: mb B I16..4: 0.1% 1.6% 0.4% B16..8: 32.2% 22.2% 4.4% direct: 4.7% skip:34.4% L0:33.5% L1:41.9% BI:24.6%
x264 info: 8x8 transform intra:70.9% inter:44.9%
x264 info: coded y,uvDC,uvAC intra: 90.6% 94.2% 78.5% inter: 25.5% 27.3% 17.0%
x264 info: i16 v,h,dc,p: 8% 30% 5% 56%
x264 info: i8 v,h,dc,ddl,ddr,vr,hd,vl,hu: 13% 11% 5% 8% 11% 13% 12% 14% 14%
x264 info: i4 v,h,dc,ddl,ddr,vr,hd,vl,hu: 12% 13% 5% 8% 14% 14% 12% 11% 12%
x264 info: i8c dc,h,v,p: 41% 21% 19% 20%
x264 info: Weighted P-Frames: Y:3.1% UV:1.7%
x264 info: ref P L0: 65.0% 15.1% 9.2% 3.6% 2.3% 1.7% 1.3% 0.8% 0.8% 0.2% 0.0%
x264 info: ref B L0: 93.1% 3.8% 1.5% 0.6% 0.4% 0.3% 0.2% 0.1%
x264 info: ref B L1: 96.6% 3.4%
x264 info: kb/s:3502.03
Screenshots



Залил: gekka
Размер скачиваемого торрента: 2.94 GB (3158902205 Bytes)

Бонни и Клайд/Bonnie and Clyde (1967) BDRip-AVC | iPad | D торрент скачать бесплатно
 
Уважаемый посетитель, Вы зашли на сайт как незарегистрированный пользователь. Мы рекомендуем Вам зарегистрироваться либо зайти на сайт под своим именем.

Другие новости по теме:

  • Cephei Mc - Бонни и Клайд (2013) mp3
  • Бонни и Клайд / Bonnie and Clyde (1967) BD Remux
  • Бонни и Клайд / Bonnie and Clyde (2013) HDTV 720p скачать через торрент
  • Бонни и Клайд / Bonnie and Clyde (2013) HDTVRip скачать через торрент
  • OST - Бонни и Клайд / Bonnie And Clyde (2013) MP3
  • Современные Бонни и Клайд / Teenage Bonnie and Klepto Clyde (1993) HDTVRip-AVC | P2
  • Бонни и Клайд / Bonnie and Clyde (1967) BDRip 720p | D, P2, P, A
  • Современные Бонни и Клайд / Teenage Bonnie and Klepto Clyde (Джон Шеппирд / John Shepphird) AVO


  • Информация
    Посетители, находящиеся в группе Гости, не могут оставлять комментарии в данной новости.
    Главная страница | Регистрация | Добавить новость | Новое на сайте Copyright © 2019. torrent777.xyz All Rights Reserved