. torrent777.xyz
Авторские права
web...@...Показать
Вход на сайт
Логин:
Пароль:
 
Навигация по сайту
Опрос на сайте

Да
Нет


Популярные статьи

Cкачать торрент бесплатно фильмы, игры, музыка, книги Фильмы торрент скачать Максимальный риск / Maximum Risk (1996) DVD9 от NovaLan скачать через торрент

Максимальный риск / Maximum Risk (1996) DVD9 от NovaLan скачать через торрент

Фильмы торрент скачать
Максимальный риск / Maximum Risk (1996) DVD9 от NovaLan скачать через торрент

Русское название: Максимальный риск
Русское название в мировом прокате: Maximum Risk
Создали в: 1996
Категория жанра: Боевик, триллер, приключения
Главный режиссер: Ринго Лэм
Актеры: Жан-Клод Ван Дамм, Наташа Хенстридж, Жан-Юг Англад, Зэк Гренье, Пол Бен-Виктор, Фрэнк Сенгер, Дэвид Хемблен, Стефани Одран

Сюжет фильма:
Французский полицейский Ален Моро узнает о том, что один из погибших в перестрелке бандитов по имени Михаил очень похож на него. И это мягко сказано: на самом деле у них просто одно лицо. Мать Алена неожиданно признается в том, что Михаил - это его брат-близнец, оставленный в роддоме по настоянию семьи. Полицейский решает узнать о погибшем брате как можно больше. Он отправляется в Нью-Йорк. И чем ближе он к цели, тем меньше шансов выжить...


Снималось в: США, Columbia Pictures Corporation
Время просмотра: 01:36:27
Перевод текста: Дублированный / Профессиональный, многоголосый / Авторский, одноголосый (Юрий Живов)

Кодек для видео: MPEG-2
Качество фильма: DVD-9
Информация о видео: PAL 16:9 (720x576) VBR
Информация о звуке: Русский (Dolby AC3, 6 ch), (Dolby AC3, 2 ch), английский (Dolby AC3, 6 ch)
Субтитры: Русские, английские

Релиз группы NovaLan
Автор релиза Sergei7721
Производство: Blu-Ray Disc DVD-9
Дата релиза: 19.10.2012


MediaInfo

Полное имя : C:UsersСергейDownloadsРаздачиMaksimaljnyj.risk.1996.DVD9.NovaLanVIDEO_TSVTS_01_1.VOB
Формат : MPEG-PS
Размер файла : 1024 Мбайт
Продолжительность : 14 м.
Режим общего битрейта : Переменный
Общий поток : 9892 Кбит/сек

Видео
Идентификатор : 224 (0xE0)
Формат : MPEG Video
Версия формата : Version 2
Профиль формата : Main@Main
Параметр BVOP формата : Да
Параметр матрицы формата : Выборочная
Продолжительность : 14 м.
Вид битрейта : Переменный
Битрейт : 8415 Кбит/сек
Максимальный битрейт : 8500 Кбит/сек
Ширина : 720 пикселей
Высота : 576 пикселей
Соотношение сторон : 16:9
Частота кадров : 25,000 кадров/сек
Стандарт вещания : PAL
Цветовое пространство : YUV
Субдискретизация насыщенности : 4:2:0
Битовая глубина : 8 бит
Тип развёртки : Чересстрочная
Порядок развёртки : Верхнее поле первое
Метод сжатия : С потерями
Бит/(Пиксели*Кадры) : 0.812
Размер потока : 871 Мбайт (85%)

Аудио #1
Идентификатор : 189 (0xBD)-128 (0x80)
Формат : AC-3
Формат/Информация : Audio Coding 3
Расширение режима : CM (complete main)
Параметр Endianness формата : Big
Режим смешивания : DVD-Video
Продолжительность : 14 м.
Вид битрейта : Постоянный
Битрейт : 448 Кбит/сек
Каналы : 6 каналов
Расположение каналов : Front: L C R, Side: L R, LFE
Частота : 48,0 КГц
Битовая глубина : 16 бит
Метод сжатия : С потерями
Размер потока : 46,4 Мбайт (5%)

Аудио #2
Идентификатор : 189 (0xBD)-129 (0x81)
Формат : AC-3
Формат/Информация : Audio Coding 3
Расширение режима : CM (complete main)
Параметр Endianness формата : Big
Режим смешивания : DVD-Video
Продолжительность : 14 м.
Вид битрейта : Постоянный
Битрейт : 192 Кбит/сек
Каналы : 2 канала
Расположение каналов : Front: L R
Частота : 48,0 КГц
Битовая глубина : 16 бит
Метод сжатия : С потерями
Размер потока : 19,9 Мбайт (2%)

Аудио #3
Идентификатор : 189 (0xBD)-130 (0x82)
Формат : AC-3
Формат/Информация : Audio Coding 3
Расширение режима : CM (complete main)
Параметр Endianness формата : Big
Режим смешивания : DVD-Video
Продолжительность : 14 м.
Вид битрейта : Постоянный
Битрейт : 448 Кбит/сек
Каналы : 6 каналов
Расположение каналов : Front: L C R, Side: L R, LFE
Частота : 48,0 КГц
Битовая глубина : 16 бит
Метод сжатия : С потерями
Размер потока : 46,4 Мбайт (5%)

Аудио #4
Идентификатор : 189 (0xBD)-131 (0x83)
Формат : AC-3
Формат/Информация : Audio Coding 3
Расширение режима : CM (complete main)
Параметр Endianness формата : Big
Режим смешивания : DVD-Video
Продолжительность : 14 м.
Вид битрейта : Постоянный
Битрейт : 192 Кбит/сек
Каналы : 2 канала
Расположение каналов : Front: L R
Частота : 48,0 КГц
Битовая глубина : 16 бит
Метод сжатия : С потерями
Размер потока : 19,9 Мбайт (2%)

Скриншоты для ознакомления меню




Релиз подготовил:


Залил: Sergei7721
Размер скачиваемого торрента: 7.03 GB (7546695680 Bytes)

Максимальный риск / Maximum Risk (1996) DVD9 от NovaLan скачать через торрент

Ключевые теги: скачать фильмы, скачать сериалы
 
Уважаемый посетитель, Вы зашли на сайт как незарегистрированный пользователь. Мы рекомендуем Вам зарегистрироваться либо зайти на сайт под своим именем.

Другие новости по теме:

  • Максимальный риск / Maximum Risk (1996) HDRip
  • Максимальный риск / Maximum Risk (1996) BDRip 720p от HQ-ViDEO
  • Максимальный риск / Maximum Risk (1996) BDRip 1080p by msltel | D, P, A скачать через торрент
  • Максимальный риск / Maximum Risk (1996) BDRip-AVC от 0ptimus | D, P, A скачать через торрент
  • Максимальный риск / Maximum Risk (1996) BDRip 720p от 0ptimus | D, P, A скачать через торрент
  • Максимальный риск / Maximum Risk (1996) BDRip от HQCLUB
  • Максимальный риск / Maximum Risk / 1996 / АП (Визгунов, Кашкин) / BDRip
  • Максимальный риск / Maximum Risk / 1996 / ДБ / DVDRip


  • Информация
    Посетители, находящиеся в группе Гости, не могут оставлять комментарии в данной новости.
    Главная страница | Регистрация | Добавить новость | Новое на сайте Copyright © 2019. torrent777.xyz All Rights Reserved